Exact Audio Copy V0.99 prebeta 5 from 4. May 2009

EAC extraction logfile from 30. May 2009, 17:44

Ayla / Nirwana

Used drive  : _NEC    DV-5800C   Adapter: 0  ID: 1

Read mode               : Secure
Utilize accurate stream : Yes
Defeat audio cache      : Yes
Make use of C2 pointers : No

Read offset correction                      : 12
Overread into Lead-In and Lead-Out          : No
Fill up missing offset samples with silence : Yes
Delete leading and trailing silent blocks   : No
Null samples used in CRC calculations       : Yes
Used interface                              : Native Win32 interface for Win NT & 2000
Gap handling                                : Appended to previous track

Used output format              : User Defined Encoder
Selected bitrate                : 128 kBit/s
Quality                         : High
Add ID3 tag                     : No
Command line compressor         : C:\Program Files\EAC\Flac\flac.exe
Additional command line options : -8 -V -T "ARTIST=%a" -T "TITLE=%t" -T "ALBUM=%g" -T "DATE=%y" -T "TRACKNUMBER=%n" -T "GENRE=%m" -T "COMMENT=EAC FLAC -8" %s

TOC of the extracted CD

     Track |   Start  |  Length  | Start sector | End sector
    ---------------------------------------------------------
        1  |  0:00.00 |  6:55.62 |         0    |    31186   
        2  |  6:55.62 |  3:46.08 |     31187    |    48144   
        3  | 10:41.70 |  3:47.12 |     48145    |    65181   
        4  | 14:29.07 |  5:28.58 |     65182    |    89839   
        5  | 19:57.65 |  9:34.35 |     89840    |   132924   
        6  | 29:32.25 |  7:15.55 |    132925    |   165604   
        7  | 36:48.05 |  3:27.00 |    165605    |   181129   
        8  | 40:15.05 |  5:20.17 |    181130    |   205146   
        9  | 45:35.22 |  3:20.73 |    205147    |   220219   
       10  | 48:56.20 |  6:53.60 |    220220    |   251254   
       11  | 55:50.05 |  6:43.55 |    251255    |   281534   
       12  | 62:33.60 |  3:50.72 |    281535    |   298856   
       13  | 66:24.57 |  5:33.05 |    298857    |   323836   
       14  | 71:57.62 |  5:46.38 |    323837    |   349824   

Track  1

     Filename D:\Temp\CDRips\01. Ayla - Liebe (Trance Mix).wav

     Pre-gap length  0:00:02.00

     Peak level 94.4 %
     Track quality 100.0 %
     Test CRC E334036D
     Copy CRC E334036D
     Accurately ripped (confidence 5)  [C934194C]
     Copy OK

Track  2

     Filename D:\Temp\CDRips\02. Ayla - Angelfalls (Radio Cut).wav

     Peak level 94.3 %
     Track quality 99.9 %
     Test CRC D988C2E4
     Copy CRC D988C2E4
     Accurately ripped (confidence 5)  [ED9FC476]
     Copy OK

Track  3

     Filename D:\Temp\CDRips\03. Ayla - Singularity (Brainchild II) (Tandu Radio Edit).wav

     Peak level 99.9 %
     Track quality 100.0 %
     Test CRC 3C56D9D9
     Copy CRC 3C56D9D9
     Accurately ripped (confidence 5)  [CF6861B7]
     Copy OK

Track  4

     Filename D:\Temp\CDRips\04. Ayla - Vegas.wav

     Peak level 94.4 %
     Track quality 100.0 %
     Test CRC 95BC9A0E
     Copy CRC 95BC9A0E
     Accurately ripped (confidence 5)  [92C70820]
     Copy OK

Track  5

     Filename D:\Temp\CDRips\05. Ayla - Ayla (Taucher Remix).wav

     Peak level 94.4 %
     Track quality 99.9 %
     Test CRC 5CC23BA1
     Copy CRC 5CC23BA1
     Accurately ripped (confidence 5)  [8112D8DB]
     Copy OK

Track  6

     Filename D:\Temp\CDRips\06. Ayla - Sunday.wav

     Peak level 94.4 %
     Track quality 100.0 %
     Test CRC 9D75822E
     Copy CRC 9D75822E
     Accurately ripped (confidence 4)  [A0739959]
     Copy OK

Track  7

     Filename D:\Temp\CDRips\07. Ayla - Dreamland.wav

     Peak level 94.4 %
     Track quality 100.0 %
     Test CRC BF9DF167
     Copy CRC BF9DF167
     Accurately ripped (confidence 4)  [397CCB97]
     Copy OK

Track  8

     Filename D:\Temp\CDRips\08. Ayla - Karawane.wav

     Peak level 94.4 %
     Track quality 100.0 %
     Test CRC A6DCC9E7
     Copy CRC A6DCC9E7
     Accurately ripped (confidence 5)  [FFE31FF6]
     Copy OK

Track  9

     Filename D:\Temp\CDRips\09. Ayla - Ayla Part II.wav

     Peak level 94.4 %
     Track quality 100.0 %
     Test CRC A9EB8726
     Copy CRC A9EB8726
     Accurately ripped (confidence 4)  [A04F6764]
     Copy OK

Track 10

     Filename D:\Temp\CDRips\10. Ayla - Into The Light.wav

     Peak level 94.4 %
     Track quality 100.0 %
     Test CRC 66BFAF1A
     Copy CRC 66BFAF1A
     Accurately ripped (confidence 5)  [3CFB78F3]
     Copy OK

Track 11

     Filename D:\Temp\CDRips\11. Ayla - Out Of The Light.wav

     Peak level 94.4 %
     Track quality 100.0 %
     Test CRC 8C87AA5A
     Copy CRC 8C87AA5A
     Accurately ripped (confidence 5)  [D7A98215]
     Copy OK

Track 12

     Filename D:\Temp\CDRips\12. Ayla - Angelfalls (Particular Beach).wav

     Peak level 94.4 %
     Track quality 100.0 %
     Test CRC 22497F6B
     Copy CRC 22497F6B
     Accurately ripped (confidence 5)  [6CF0EF94]
     Copy OK

Track 13

     Filename D:\Temp\CDRips\13. Ayla - Ayla (Tandu Remix).wav

     Peak level 94.5 %
     Track quality 99.9 %
     Test CRC 99B1D26B
     Copy CRC 99B1D26B
     Accurately ripped (confidence 5)  [6431BCB7]
     Copy OK

Track 14

     Filename D:\Temp\CDRips\14. Ayla - Liebe (ATB Mix).wav

     Peak level 94.4 %
     Track quality 100.0 %
     Test CRC F0F09AAE
     Copy CRC F0F09AAE
     Accurately ripped (confidence 5)  [0B0D81ED]
     Copy OK

All tracks accurately ripped

No errors occurred

End of status report